<?xml version="1.0" standalone="no"?> <!DOCTYPE svg PUBLIC "-//W3C//DTD SVG 1.0//EN" "http://www.w3.org/TR/2001/REC-SVG-20010904/DTD/svg10.dtd" > <svg xmlns="http://www.w3.org/2000/svg" width="100%" height="100%">
<defs >
<font id="MathJax_SansSerif-Italic" horiz-adv-x="407" ><font-face
    font-family="MathJax_SansSerif"
    units-per-em="1000"
    panose-1="0 0 0 0 0 0 0 0 0 0"
    ascent="1017"
    descent="-450"
    alphabetic="0" />
<missing-glyph horiz-adv-x="250" d="M50 0V533H200V0H50ZM100 50H150V483H100V50Z" />
<glyph unicode=" " glyph-name="space" horiz-adv-x="250" />
<glyph unicode="!" glyph-name="exclam" horiz-adv-x="319" d="M160 187L257 694H306Q355 694 355 693L238 186H199Q160 186 160 187ZM110 2Q130 95 131 96Q131 98 180 98T229 96L208 2V0H110V2Z" />
<glyph unicode="&quot;" glyph-name="quotedbl" horiz-adv-x="500" d="M171 647L180 694H229Q278 694 278 693L276 686Q275 680 273 668T268 644L258 597L182 471H157Q133 471 133 472L189 595Q189 596 174 596H160V598Q160 601 171 647ZM365 647L374 694H423Q472
694 472 693L470 686Q469 680 467 668T462 644L452 597L376 471H351Q327 471 327 472L383 595Q383 596 368 596H354V598Q354 601 365 647Z" />
<glyph unicode="#" glyph-name="numbersign" horiz-adv-x="833" d="M793 170Q809 161 809 150Q809 141 793 130H547L472 -27Q397 -184 394 -187Q389 -194 379 -194Q366 -194 362 -183Q359 -179 359 -173Q360 -168 431 -20L503 129Q503 130 410 130H317L242 -27Q167
-184 164 -187Q159 -194 149 -194Q136 -194 132 -183Q129 -179 129 -173Q130 -168 201 -19L273 130H187L100 131Q87 140 87 150Q87 163 102 170H294L331 248Q339 265 349 286T365 318L370 328Q370 330 258 330Q145 330 142 332Q130 338 130 351Q130 362 140 368Q146
370 267 370L391 371L467 527Q542 684 544 686Q544 689 550 691T560 694Q580 688 579 672Q577 665 507 520T436 373L435 370H528L621 371L692 518Q767 675 769 677Q776 694 789 694Q798 694 804 688T809 672Q806 664 737 519L665 371L751 370Q835 370 841 368Q851
362 851 350Q851 341 846 336Q842 332 833 332T741 330H645L606 250L568 170H793ZM600 328Q600 330 508 330H415L338 171Q338 170 431 170H524L561 248Q569 265 579 286T595 318L600 328Z" />
<glyph unicode="$" glyph-name="dollar" horiz-adv-x="500" d="M228 70Q230 83 243 144T268 260T280 316Q277 317 273 318Q223 331 191 370T159 468Q159 537 205 600T325 691Q352 701 360 701Q361 701 361 701T362 703T364 711T368 727L372 750H409Q445 750 445
749L436 705Q436 703 450 702T494 691T554 657L565 649L534 568Q499 603 459 615Q435 623 424 623L419 624L372 405Q396 401 424 384Q490 339 490 247Q490 220 488 209Q474 133 420 73T294 -5L284 -7L280 -30Q279 -35 278 -41T275 -52L274 -55Q274 -56 237 -56Q201
-56 201 -54Q202 -53 206 -33T211 -11Q211 -9 206 -9Q154 -2 115 19Q80 35 56 59L88 141L99 131Q149 83 219 72L228 70ZM343 614L345 620L335 616Q287 596 263 549Q252 524 252 499T265 454T298 426Q303 424 303 426Q305 428 343 614ZM399 214Q399 243 385 266T349
297Q338 247 326 186L302 75Q303 75 308 77T319 83T328 89Q361 110 380 144T399 214Z" />
<glyph unicode="%" glyph-name="percent" horiz-adv-x="833" d="M279 723Q317 749 349 749Q382 749 407 733Q456 694 456 614Q456 517 405 440Q352 360 286 349Q274 347 268 347Q235 347 207 373Q165 412 165 488Q165 517 173 552Q197 664 279 723ZM372 604Q372
674 339 674Q315 674 295 643Q277 616 263 553Q253 506 253 482Q253 452 259 438T286 424Q300 424 314 437Q338 462 355 508T372 604ZM785 747Q790 750 796 750Q814 748 814 730Q814 725 811 719L204 -49Q198 -56 189 -56Q174 -56 169 -41Q169 -40 168 -39T167
-37Q167 -30 347 198Q425 296 475 360Q780 745 785 747ZM644 324Q677 347 713 347Q760 347 789 303Q815 263 815 207Q815 177 805 135Q785 50 728 -6Q693 -41 653 -53Q645 -55 629 -55Q606 -55 592 -48Q560 -35 542 2T523 87Q523 111 529 141Q540 198 570 248T644
324ZM729 200Q729 271 696 271Q690 271 688 270Q656 261 634 199T611 76Q611 21 644 21H647Q658 21 672 35Q696 59 712 105T729 200Z" />
<glyph unicode="&amp;" glyph-name="ampersand" horiz-adv-x="758" d="M441 715Q446 716 455 716Q484 716 503 705Q532 692 548 662T565 590T548 513Q513 440 377 347L358 334Q359 331 369 304T387 262Q401 231 424 192T460 139Q584 228 664 389Q674 407 674 409L710
398Q746 388 747 388Q747 383 722 340Q695 291 664 248T606 177T558 129T523 98T510 87Q510 84 537 70Q564 57 598 57Q648 57 708 72Q716 75 718 75L709 34L701 -7Q630 -22 578 -22Q502 -22 428 34L408 25Q311 -22 219 -22Q115 -22 79 67Q73 84 71 111Q71 138 76
159Q91 216 137 262Q157 281 214 318L258 348L256 362Q254 373 254 413V435Q254 462 260 491Q274 570 315 629T411 708Q427 715 441 715ZM480 579Q480 640 436 640Q428 640 425 639Q400 633 380 610T351 554Q340 513 340 457Q340 438 341 429Q341 426 341 421T342
413L343 410Q343 406 360 419Q417 461 443 490Q464 513 472 531T480 579ZM370 98Q308 178 281 260L274 277L245 257Q208 232 192 212T168 157Q167 152 167 135Q167 71 220 58Q227 57 245 57Q293 60 334 73Q375 87 375 89T370 98Z" />
<glyph unicode="&apos;" glyph-name="quotesingle" horiz-adv-x="278" d="M228 647L237 694H286Q335 694 335 693L334 686Q332 680 330 668T325 644L315 597L239 471H214Q190 471 190 472L246 595Q246 596 231 596H217V598Q217 601 228 647Z" />
<glyph unicode="(" glyph-name="parenleft" horiz-adv-x="389" d="M405 740L417 750H454Q491 750 491 749T476 735Q372 645 304 504T208 188Q195 110 195 37Q195 -138 277 -245L280 -250H204L194 -238Q104 -122 104 55Q104 159 135 288Q187 499 305 642Q352 699 405 740Z" />
<glyph unicode=")" glyph-name="parenright" horiz-adv-x="389" d="M300 463Q300 634 222 740L214 750H290L299 740Q301 737 306 731T313 721Q390 613 390 444Q390 325 353 186Q303 4 203 -125Q179 -155 145 -191Q111 -224 89 -241L78 -250H2L6 -246Q210 -72 278
266Q300 372 300 463Z" />
<glyph unicode="*" glyph-name="asterisk" horiz-adv-x="500" d="M193 608Q193 629 210 644T246 660Q251 660 261 656Q262 656 302 623Q340 590 340 593Q341 594 350 654T360 715Q364 728 377 739T407 750Q422 750 432 742T443 720Q443 712 427 652L410 591L462
623Q514 655 519 657Q526 660 534 660Q548 660 558 650T568 625Q568 606 553 591Q547 585 470 548L429 528L474 500Q522 471 523 470Q530 463 530 450Q530 431 514 414T479 397H475Q468 397 460 402T423 433Q414 440 404 448T388 461L383 465L365 344L361 335Q346
306 314 306Q299 306 290 314T281 338Q281 347 297 404L313 464L260 433Q209 402 202 398Q199 397 189 397Q173 397 165 407T156 432Q156 451 172 466Q179 473 250 506L295 528L250 556Q203 582 202 585Q193 591 193 608Z" />
<glyph unicode="+" glyph-name="plus" horiz-adv-x="778" d="M775 262T775 250T760 230H458Q400 -58 394 -71Q389 -83 375 -83Q367 -83 362 -78T356 -64Q356 -58 387 84Q394 118 401 155T413 210L417 229Q417 230 271 230H124Q108 239 108 250T124 270H426V272Q428
274 457 419Q487 560 490 568Q492 583 508 583Q515 583 521 578T528 565Q528 553 498 417Q491 384 483 346T471 288L467 270H760Q775 262 775 250Z" />
<glyph unicode="," glyph-name="comma" horiz-adv-x="278" d="M90 2Q110 95 111 96Q111 98 160 98T209 96L188 2Q188 0 149 -63L112 -125H63L120 0H105Q90 0 90 2Z" />
<glyph unicode="-" glyph-name="hyphen" horiz-adv-x="333" d="M66 257V259H332V257L324 220L317 186H184Q51 186 51 187T58 220T66 257Z" />
<glyph unicode="." glyph-name="period" horiz-adv-x="278" d="M90 2Q110 95 111 96Q111 98 160 98T209 96L188 2V0H90V2Z" />
<glyph unicode="/" glyph-name="slash" horiz-adv-x="500" d="M27 -250Q6 -250 6 -230Q6 -228 8 -222Q9 -219 285 261T564 744L570 748Q576 750 579 750Q588 750 594 744T599 729Q597 721 321 241T41 -243Q37 -250 27 -250Z" />
<glyph unicode="0" glyph-name="zero" horiz-adv-x="500" d="M298 654Q346 678 392 678H395Q439 678 474 657T527 600Q549 555 549 481Q549 454 546 427Q533 308 499 213Q459 89 379 25Q331 -10 276 -20Q262 -22 245 -22Q178 -22 135 21Q88 68 88 171Q88 231 109
327Q139 472 194 557Q238 624 298 654ZM430 582Q408 601 378 601Q312 601 269 534Q234 475 205 341Q181 232 181 174Q181 134 186 114T209 76Q231 54 260 54T318 73T368 125Q410 194 447 375Q460 445 460 487Q460 555 430 582Z" />
<glyph unicode="1" glyph-name="one" horiz-adv-x="500" d="M290 619Q369 631 428 678H439Q451 678 451 676Q450 671 387 373T323 74T384 73H445L430 0H259L88 1L104 73H229L332 560Q259 539 198 539Q198 540 198 541T199 546T200 554T202 564T205 576L213 612H219Q221
612 226 612T234 613Q256 613 290 619Z" />
<glyph unicode="2" glyph-name="two" horiz-adv-x="500" d="M190 460Q189 460 181 475T164 507T155 527Q155 532 182 571Q260 678 380 678Q452 678 496 641T550 537Q551 532 551 513Q551 489 549 471Q538 404 487 349Q453 310 360 243Q328 221 316 212Q304 204
231 146T158 86T188 85Q194 85 234 85T311 86Q467 86 467 85Q451 9 449 2V0H50Q54 18 58 40L67 79L133 133Q246 226 269 243Q305 270 332 292Q435 379 450 462Q452 476 452 492Q452 543 425 571T350 599Q320 599 295 589T252 557T222 517T195 470L190 460Z" />
<glyph unicode="3" glyph-name="three" horiz-adv-x="500" d="M446 542Q446 572 426 588T372 605Q330 605 288 583T216 524Q209 515 208 516Q207 517 192 549L178 580L187 589Q264 668 365 677Q372 678 386 678Q448 678 489 650Q507 636 520 621Q544 589 544 550Q544
548 544 544T543 538Q535 456 462 394Q438 373 406 355L403 353L413 348Q440 335 462 313Q500 270 500 217Q500 204 498 192Q488 136 450 86T355 7Q295 -22 236 -22Q127 -22 63 59L56 68Q57 68 71 104T85 141L91 134Q97 126 107 115T125 98Q177 54 254 54Q306 54
345 94T395 198Q396 204 396 218Q396 297 335 313Q327 315 280 316Q233 316 233 318L249 392Q254 392 287 395T322 399Q365 407 400 442T444 522Q446 536 446 542Z" />
<glyph unicode="4" glyph-name="four" horiz-adv-x="500" d="M78 235L411 656H465Q519 656 519 655T475 447T430 237V235H521V233L505 160Q505 159 459 159H414L380 0H286L320 159H62L63 164Q64 169 66 179T70 198L78 235ZM342 235Q343 239 348 263T363 333T382
425L421 607Q420 607 419 604Q409 535 197 267Q173 236 173 235H342Z" />
<glyph unicode="5" glyph-name="five" horiz-adv-x="500" d="M350 427Q417 427 457 378T498 256Q498 190 464 130Q431 70 376 31T255 -20Q239 -22 222 -22Q136 -22 80 34Q69 45 60 59T50 77Q50 78 53 82T64 96T78 112L104 145L107 139Q139 55 236 55Q256 55 264
57Q314 68 346 108T389 210Q396 249 396 267Q396 319 365 341Q353 350 337 350H330Q308 350 289 342Q248 326 214 272H133V275Q134 276 174 467L214 655Q214 656 385 656H555V653Q555 652 554 647T550 631T546 613L539 577H284L265 486Q261 464 256 441T248 406L246
395L250 398Q255 401 264 406T286 415T315 423T350 427Z" />
<glyph unicode="6" glyph-name="six" horiz-adv-x="500" d="M246 -22Q168 -22 131 33T94 179Q94 275 123 373Q151 465 209 539T340 650Q396 678 450 678Q477 678 500 673Q515 670 531 664T548 656L544 638Q540 621 536 604L532 586L526 588Q519 590 509 593T488
598T462 603T437 605Q392 605 350 578Q282 534 240 435Q228 404 228 401L236 408Q244 414 260 424T296 445T345 462T402 469Q407 469 415 469T424 468Q450 463 467 446T498 394Q515 351 515 307Q515 282 511 259Q494 150 439 85Q410 49 369 20T288 -18Q262 -22
246 -22ZM419 298Q419 392 339 392Q322 392 318 391Q269 381 232 331T189 218Q185 193 185 163Q185 88 230 61Q244 54 262 54Q325 54 371 122Q395 158 410 236Q419 278 419 298Z" />
<glyph unicode="7" glyph-name="seven" horiz-adv-x="500" d="M173 614L181 656H389Q596 656 596 655L595 650Q594 645 592 635T588 616L580 578L554 551Q420 415 337 254Q273 127 245 4L242 -11H192Q143 -11 143 -10Q143 -1 157 49Q223 279 393 470Q423 504 472
550Q480 556 487 563T496 571L329 570Q163 570 163 571L164 577Q166 583 168 593T173 614Z" />
<glyph unicode="8" glyph-name="eight" horiz-adv-x="500" d="M246 -22Q171 -22 124 24T77 143Q77 187 96 226Q125 287 188 327Q207 339 243 353L244 354L227 363Q210 372 189 394T160 449Q159 454 159 470Q159 517 187 561Q233 637 321 666Q357 678 394 678Q456
678 497 646T551 563Q554 548 554 533Q554 495 538 464Q526 441 508 421T472 390T439 370T414 359T404 354T405 353T430 341Q500 295 500 218Q500 158 465 107T381 21Q315 -22 246 -22ZM467 527Q467 605 375 605Q323 605 290 576T245 496Q244 490 244 472Q244 433
268 413T334 392Q392 392 429 430T467 527ZM405 228Q405 269 381 292T315 316Q312 316 307 316T301 315Q246 307 210 261T174 144Q174 100 196 77T262 54Q332 54 373 117Q405 168 405 228Z" />
<glyph unicode="9" glyph-name="nine" horiz-adv-x="500" d="M375 677H389Q545 677 545 479Q545 413 526 327Q491 168 386 65Q296 -22 202 -22Q124 -22 77 25L130 91L137 83Q169 54 218 54Q253 54 289 76T347 129Q382 173 407 243Q408 246 409 249T410 254L411
256Q406 253 401 249Q324 187 236 187Q195 187 173 209Q151 228 138 267T124 352Q124 392 135 435Q154 527 220 594Q296 668 375 677ZM455 497Q455 605 383 605Q343 605 312 582Q269 550 246 492Q220 411 220 360Q220 322 235 297T279 264Q280 264 287 264T299
263Q328 263 346 272T387 302Q455 375 455 497Z" />
<glyph unicode=":" glyph-name="colon" horiz-adv-x="278" d="M174 396L184 444H233Q282 444 282 443Q277 421 272 394L262 346H213Q164 346 164 347Q169 369 174 396ZM90 2Q110 95 111 96Q111 98 160 98T209 96L188 2V0H90V2Z" />
<glyph unicode=";" glyph-name="semicolon" horiz-adv-x="278" d="M174 396L184 444H233Q282 444 282 443Q277 421 272 394L262 346H213Q164 346 164 347Q169 369 174 396ZM90 2Q110 95 111 96Q111 98 160 98T209 96L188 2Q188 0 149 -63L112 -125H63L120 0H105Q90
0 90 2Z" />
<glyph unicode="=" glyph-name="equal" horiz-adv-x="778" d="M142 368Q145 370 463 370Q780 370 784 368Q796 364 796 350T784 332Q780 330 463 330Q145 330 142 332Q130 338 130 351Q130 362 142 368ZM88 137T88 150T102 170H738Q754 161 754 150T738 130H102Q88
137 88 150Z" />
<glyph unicode="?" glyph-name="question" horiz-adv-x="472" d="M442 574Q442 605 423 617T362 629Q287 629 214 582Q206 576 205 576L200 614Q194 651 194 652T202 658T224 669T247 679Q307 704 362 704Q402 704 411 703Q536 688 536 583Q536 488 459 433Q417
401 395 379Q358 342 339 307T307 216L301 186H262Q223 186 223 187Q223 200 237 251Q253 318 294 377Q334 438 394 482Q442 518 442 574ZM173 2Q193 95 194 96Q194 98 243 98T292 96L271 2V0H173V2Z" />
<glyph unicode="@" glyph-name="at" horiz-adv-x="667" d="M404 65Q489 65 550 91H631L625 86Q590 51 536 25T425 -9Q416 -10 390 -10Q326 -10 277 11Q206 41 163 107T120 267Q120 390 194 500Q241 573 309 623T454 694Q494 705 538 705Q624 705 665 655T707 513Q707
424 681 331Q658 241 590 179T447 117Q352 117 312 214Q300 247 300 288Q300 386 359 466T495 570Q517 576 544 576Q577 576 608 562Q604 581 590 597Q568 628 517 628Q498 628 490 627Q388 610 308 522Q237 441 218 341Q212 310 212 278Q212 184 264 125T404 65ZM600
397Q600 439 582 470T530 501Q505 501 476 482Q439 456 415 405T390 298Q390 255 408 224T462 193T532 228Q600 294 600 397Z" />
<glyph unicode="A" glyph-name="A" horiz-adv-x="667" d="M28 0Q32 7 232 353L429 694H533L585 350Q596 275 610 182T632 46L638 3V0H530L528 18Q526 25 515 100T503 183H223L135 29L118 1L73 0H28ZM454 589V610Q434 556 290 301L264 255L378 254H492L490 274Q454
512 454 589Z" />
<glyph unicode="B" glyph-name="B" horiz-adv-x="667" d="M501 363Q562 354 607 315T653 222Q653 201 650 189Q639 142 603 102T518 38Q468 12 403 2Q394 1 240 0Q90 0 90 1L100 46Q109 90 128 177T164 348L238 694H375Q518 693 546 688Q655 665 687 588Q696 567
696 544Q696 506 671 468Q624 399 516 368L501 363ZM479 621Q472 622 394 623H320L297 513Q292 489 286 459T276 415L273 401V399H339Q428 399 464 408Q529 424 571 466Q601 498 601 530Q601 543 595 558Q570 607 479 621ZM257 322Q256 320 230 197T203 73Q203
71 289 71Q379 72 387 73Q443 81 486 107T547 170Q556 189 556 210Q556 249 525 277Q491 309 428 320Q415 322 336 323Q257 323 257 322Z" />
<glyph unicode="C" glyph-name="C" horiz-adv-x="639" d="M359 654Q449 705 544 705Q628 705 703 676L718 670Q719 669 701 621T681 572L676 576Q670 580 661 586T641 598T614 611T583 620Q558 625 526 625Q495 625 470 619Q388 597 322 520T236 343Q230 312 230
276Q230 133 330 85Q365 68 412 68Q469 68 506 79T598 123Q608 129 608 128Q606 109 603 87L598 45L573 33Q521 7 486 -1T394 -10Q358 -10 346 -8Q260 5 202 62Q124 145 124 266Q124 362 171 456Q221 551 302 616Q330 640 359 654Z" />
<glyph unicode="D" glyph-name="D" horiz-adv-x="722" d="M162 348L236 694H385Q535 693 543 692Q638 675 692 604T747 425Q747 296 672 187Q626 114 549 62T384 1Q376 0 262 0Q88 0 88 1L98 46Q107 90 126 177T162 348ZM487 622Q481 623 399 623H321L263 348Q249
283 234 213T212 107L204 72Q204 71 289 71Q374 72 386 74Q508 95 582 206Q629 276 644 378Q646 396 646 422Q646 488 622 533Q581 612 487 622Z" />
<glyph unicode="E" glyph-name="E" horiz-adv-x="597" d="M86 2Q88 4 160 346T233 689Q233 691 461 691Q688 691 688 689Q686 687 682 669T674 631L671 611H495L320 612L319 609Q319 607 297 501L274 397H436Q597 397 597 396L596 391Q595 386 593 376T589 358L581
322L420 321Q258 321 258 320Q209 89 208 87Q208 85 390 85Q417 85 460 85T518 86L572 85Q556 8 554 2V0H86V2Z" />
<glyph unicode="F" glyph-name="F" horiz-adv-x="569" d="M86 2Q88 4 160 346T233 689Q233 691 453 691T673 689Q671 687 667 669T660 631L656 611H488L320 612Q319 608 307 552T284 441T272 385Q272 384 419 384H567L551 308H255L223 156Q216 124 207 82T194
20L190 2Q190 0 138 0H86V2Z" />
<glyph unicode="G" glyph-name="G" horiz-adv-x="667" d="M125 267Q125 353 160 433T251 570T377 663T517 704Q519 704 528 704T544 705Q628 705 699 673Q730 658 730 655L712 609L693 560L692 557L681 567Q647 598 613 612T526 626Q505 626 495 624Q393 607 320
517T231 316Q229 292 229 277Q229 183 277 126T406 68Q442 68 485 76L524 84L526 93Q528 102 532 119T539 153L553 222Q553 223 495 223Q436 223 436 224Q436 230 444 262L452 299H662V296Q661 290 635 166T607 40Q603 30 516 6Q451 -11 391 -11Q291 -11 224 43T135
183Q125 222 125 267Z" />
<glyph unicode="H" glyph-name="H" horiz-adv-x="708" d="M517 2Q518 3 551 161T585 322Q586 323 557 323T422 323H259L190 0H138Q86 0 86 1L96 46Q105 90 124 177T160 348L234 694H337V691Q336 690 306 545T275 399H602L603 403Q603 407 634 551L665 694H768V691Q768
690 695 348T621 2V0H517V2Z" />
<glyph unicode="I" glyph-name="I" horiz-adv-x="278" d="M161 348L235 694H338V691Q338 690 265 348T191 2V0H139Q87 0 87 1L96 46Q106 90 125 177T161 348Z" />
<glyph unicode="J" glyph-name="J" horiz-adv-x="472" d="M377 424L435 694H535V691Q534 685 476 412T416 135Q400 73 355 32T245 -20Q231 -22 210 -22Q141 -22 83 2Q46 17 46 21L54 41Q62 61 70 83T81 109L82 110Q83 110 87 104T97 90T114 74T143 59T185 53Q296
53 317 142Q317 145 325 182T348 289T377 424Z" />
<glyph unicode="K" glyph-name="K" horiz-adv-x="694" d="M236 223Q235 222 213 113T188 2V0H138Q88 0 88 1L98 46Q107 90 126 177T162 348L236 694H285Q335 694 335 693L330 671Q326 649 316 603T298 518Q289 477 280 433T266 366L261 343L672 694H729L784 693L465
420Q464 419 554 216T651 0H596L541 1L384 350Q383 351 310 288T236 223Z" />
<glyph unicode="L" glyph-name="L" horiz-adv-x="542" d="M161 348L235 694H338V691Q338 690 273 385T208 79Q278 80 362 80H516Q502 11 499 2V0H293Q87 0 87 1L96 46Q106 90 125 177T161 348Z" />
<glyph unicode="M" glyph-name="M" horiz-adv-x="875" d="M375 691Q456 215 459 124V106Q487 174 762 641L793 694H929V691Q929 690 856 348T782 2V0H689V2Q691 4 753 304Q817 604 818 606Q819 611 817 608Q817 607 815 603Q798 559 540 117L484 22H440L397 23L393
42Q392 57 380 123Q315 523 315 594V609L250 306Q186 3 185 2Q185 0 138 0Q92 0 92 1L102 46Q111 90 130 177T166 348L240 694H375V691Z" />
<glyph unicode="N" glyph-name="N" horiz-adv-x="708" d="M311 609Q310 608 246 306T181 2V0H134Q88 0 88 1L98 46Q107 90 126 177T162 348L236 694H382L383 691Q383 688 418 561T493 286T541 97L544 84L545 89Q545 90 553 128T578 246T610 394L674 694H766V691Q766
690 693 348T619 2V0H472L469 13Q468 17 393 293T312 605L311 609Z" />
<glyph unicode="O" glyph-name="O" horiz-adv-x="736" d="M491 715Q494 715 503 715T517 716Q545 716 580 708Q663 687 713 615T763 435Q763 402 759 377Q745 276 689 186T548 39Q456 -22 362 -22Q280 -22 215 29Q170 66 144 125T118 254Q118 409 220 544Q274
617 345 661T491 715ZM661 442Q661 519 627 570T534 634Q516 636 496 636H484Q434 630 387 599T302 516Q225 407 225 264Q225 184 259 129T351 61Q364 58 380 58Q443 58 504 105Q609 185 648 341Q661 393 661 442Z" />
<glyph unicode="P" glyph-name="P" horiz-adv-x="639" d="M162 348L236 694H378Q522 693 530 692Q599 681 644 637T690 524Q690 451 634 382Q605 346 559 319T465 280Q443 275 343 274H250V271Q250 269 235 201T206 68T192 2V0H140Q88 0 88 1L98 46Q107 90 126
177T162 348ZM594 513Q594 562 563 589T477 622Q470 623 394 623H321L293 487L263 349V347H342Q421 348 434 350Q538 367 578 449Q594 483 594 513Z" />
<glyph unicode="Q" glyph-name="Q" horiz-adv-x="736" d="M450 -8Q410 -22 363 -22Q281 -22 215 29Q170 66 144 125T118 254Q118 409 220 544Q274 617 345 661T491 715Q494 715 503 715T517 716Q545 716 580 708Q663 687 713 615T763 435Q763 402 759 377Q745
276 687 183T550 40L543 36Q550 24 557 10T574 -23T588 -51Q596 -66 606 -86T620 -116L625 -125H504L450 -8ZM417 61Q417 63 387 127T356 193Q356 194 409 194H462L485 150L508 105Q509 103 532 125T567 161Q643 255 659 386Q661 398 661 437Q661 516 626 569T531
635Q525 636 506 636Q486 636 480 635Q379 621 300 511T220 258Q220 179 254 126T353 59Q359 58 380 58Q402 58 408 59Q416 61 417 61Z" />
<glyph unicode="R" glyph-name="R" horiz-adv-x="646" d="M162 348L236 694H375Q516 693 525 692Q592 681 638 648T696 563Q698 555 698 534T697 506Q681 433 608 377Q563 344 512 327L497 321L617 0H565L513 1L402 309H255L189 0H138Q88 0 88 1L98 46Q107 90
126 177T162 348ZM603 525Q603 601 499 620Q486 622 403 623H321L297 506Q292 482 285 449T274 402L271 387V385H346Q434 385 457 389Q557 405 592 479Q603 503 603 525Z" />
<glyph unicode="S" glyph-name="S" horiz-adv-x="556" d="M161 478Q161 569 242 642T435 716Q526 716 599 673L609 667Q608 665 606 658T598 639T589 615L571 568Q570 568 557 581Q502 635 417 635Q352 635 306 596T259 507Q259 465 301 436Q316 427 372 413T432
396Q451 391 470 378Q545 328 545 236Q545 219 542 201Q530 131 478 73T353 -9Q313 -22 270 -22Q153 -22 63 41L54 48L92 146L101 137Q173 63 288 63Q342 63 383 93Q407 109 421 131Q447 165 447 204Q447 268 389 294Q384 297 329 311T253 335Q210 355 186 392T161
478Z" />
<glyph unicode="T" glyph-name="T" horiz-adv-x="681" d="M165 608L182 687Q182 688 486 688H790L789 685L781 645L773 609H521L457 306Q393 3 392 2Q392 0 340 0H288V2Q289 5 353 304T417 605V609L291 608H165Z" />
<glyph unicode="U" glyph-name="U" horiz-adv-x="688" d="M184 457L235 694H338V691Q338 690 288 451T236 210Q234 194 234 177Q234 80 313 56Q333 49 357 49Q400 49 443 72T510 128Q541 168 554 224Q556 229 606 464L655 694H747V691Q651 243 645 213Q623 148
587 102Q557 67 531 48Q443 -22 340 -22Q254 -22 199 26T132 152Q132 154 132 163T131 177Q131 200 133 214Q136 227 184 457Z" />
<glyph unicode="V" glyph-name="V" horiz-adv-x="667" d="M220 348L161 694H216Q270 694 270 693L283 613Q334 313 346 215Q359 129 359 99Q359 88 358 84Q364 102 398 165Q476 309 684 657L706 694H753Q799 694 799 693L387 0H333Q279 0 279 1L272 45Q264 89
249 177T220 348Z" />
<glyph unicode="W" glyph-name="W" horiz-adv-x="944" d="M596 540Q596 562 597 584T599 609Q599 591 443 269Q406 193 362 104L310 0H213V3Q213 5 188 339T162 690L161 694H263L265 664Q290 327 293 184Q293 112 289 85Q290 85 290 87Q290 94 306 134Q351 245
517 579L574 694H671V689Q672 681 685 498Q703 244 703 160Q703 102 700 87Q719 154 930 576L989 694H1076Q1076 693 903 347L730 0H628V4Q628 5 612 217Q606 295 598 458Q596 490 596 540Z" />
<glyph unicode="X" glyph-name="X" horiz-adv-x="667" d="M176 692Q176 694 236 694H297L338 612Q387 515 400 489L421 448L645 694H758L708 640Q481 393 456 368Q455 366 500 281T596 104T652 0H531L388 293L128 0H14L20 6Q27 13 112 105T274 282L352 367L265
529Q244 567 222 609T188 672L176 692Z" />
<glyph unicode="Y" glyph-name="Y" horiz-adv-x="667" d="M151 692Q151 694 212 694H272L279 679Q410 393 418 362Q446 401 696 683L705 694H758L809 693Q809 692 630 490T444 280Q442 275 413 139L383 1L333 0Q282 0 282 2Q283 3 312 141L341 278L246 484L151 692Z" />
<glyph unicode="Z" glyph-name="Z" horiz-adv-x="611" d="M67 54Q551 615 551 617Q543 618 517 618Q510 618 463 618T376 617Q200 617 200 618T209 657L216 694H459Q702 694 702 692Q702 689 697 667L692 643L207 80H392Q493 81 577 81Q577 70 560 2V0H55V2Q67 53 67 54Z" />
<glyph unicode="[" glyph-name="bracketleft" horiz-adv-x="289" d="M148 252L253 750H339Q425 750 425 749L424 744Q423 739 421 729T417 711L409 675L367 674H325L235 252Q145 -167 145 -172Q145 -174 187 -174H229V-176Q213 -240 213 -250H127Q41 -250 41 -248Q41
-245 148 252Z" />
<glyph unicode="]" glyph-name="bracketright" horiz-adv-x="289" d="M353 749Q353 747 303 512T199 26T141 -250H-31Q-31 -240 -15 -176V-174H70L250 674H208L165 675L181 750H267Q353 750 353 749Z" />
<glyph unicode="^" glyph-name="asciicircum" horiz-adv-x="500" d="M190 527L360 694H434L484 611Q533 528 533 527H457L390 632L385 639L266 527H190Z" />
<glyph unicode="_" glyph-name="underscore" horiz-adv-x="500" d="M59 -75L66 -38H316Q565 -38 565 -39T558 -75T549 -112Q549 -114 299 -114Q50 -114 50 -113L52 -108Q53 -103 55 -93T59 -75Z" />
<glyph unicode="a" glyph-name="a" horiz-adv-x="481" d="M165 418Q251 461 320 461Q322 461 328 461T337 460Q365 460 384 453Q424 440 448 409T473 329Q473 325 473 318T472 308Q432 110 407 2V0H317V2L325 38Q295 21 269 10Q215 -10 156 -10Q134 -10 127 -8Q97
0 79 26T61 90Q61 115 66 135Q75 162 104 185T169 220Q242 247 348 252H368L373 277Q378 302 378 318Q378 367 339 384Q332 386 313 386Q226 386 161 340Q156 337 155 337Q154 338 159 377T165 418ZM150 116Q150 92 171 79T223 65Q262 65 295 85T341 135Q343 140
348 160T353 184Q353 186 342 186Q298 185 249 177T177 157Q150 143 150 116Z" />
<glyph unicode="b" glyph-name="b" horiz-adv-x="517" d="M302 -11Q266 -11 235 1T190 26L176 38Q170 8 168 2V0H121Q75 0 75 1L84 46Q94 90 113 177T149 348L223 694H267Q312 694 312 693T282 551T251 407Q251 406 256 408T271 415Q347 454 430 454Q451 454 458
452Q495 442 517 399T539 299Q539 284 538 276Q527 146 445 59Q377 -11 302 -11ZM443 275Q443 323 418 351T346 379Q317 379 296 369Q269 359 238 332L193 118L198 109Q220 65 269 65Q345 65 394 126T443 275Z" />
<glyph unicode="c" glyph-name="c" horiz-adv-x="444" d="M75 164Q75 275 150 361T326 460H342Q398 460 427 453T493 422L499 417L483 378Q468 339 468 338L466 339Q465 340 463 341T458 344Q420 375 385 378Q355 382 334 382Q319 382 307 380Q255 368 218 322T170
207Q168 191 168 177Q168 104 221 78Q239 69 259 69H269Q347 69 420 108Q432 114 432 113T427 72L422 32L417 30Q412 27 405 24T395 20Q331 -8 259 -11Q180 -11 133 30T76 144Q75 149 75 164Z" />
<glyph unicode="d" glyph-name="d" horiz-adv-x="517" d="M469 553L499 694H588V691Q588 690 515 348T441 2V0H348V2Q357 29 357 43L352 41Q350 39 318 20Q256 -10 196 -10Q175 -10 170 -9Q94 10 75 113Q73 129 73 156Q73 176 74 182Q85 290 149 371Q217 455 294
455Q375 455 432 413Q438 407 438 410T469 553ZM167 168Q167 121 191 94T263 66Q280 66 285 67Q331 76 367 116L374 124L397 229Q419 333 419 335Q419 341 404 356Q379 379 342 379Q339 379 334 379T327 378Q267 371 227 330T173 219Q167 192 167 168Z" />
<glyph unicode="e" glyph-name="e" horiz-adv-x="444" d="M328 460Q472 460 472 309Q472 274 464 234L462 219H159Q156 186 156 185Q156 139 178 108T237 68Q246 66 268 66Q345 66 427 113V109Q426 108 422 74T417 37Q417 34 409 29Q350 0 287 -8Q269 -11 248
-11Q169 -11 120 40T71 173Q71 264 132 347Q199 437 307 459Q311 460 318 460H328ZM401 299Q399 338 377 361T316 385Q291 385 266 371Q219 349 184 289H401V299Z" />
<glyph unicode="f" glyph-name="f" horiz-adv-x="306" d="M381 443Q381 440 374 407T366 371H315Q263 371 263 369Q262 368 224 186Q215 145 205 97T189 25L184 2V0H94V2L99 25Q104 48 114 96T134 186Q172 368 173 369Q173 371 139 371H106V373L114 410L121 444H155L188
445L191 455Q192 462 201 504T212 551Q231 611 282 654T393 704Q399 705 415 705Q444 705 464 701Q492 696 494 694Q478 614 477 614L467 618Q457 621 440 624T406 629Q333 629 306 579Q301 568 289 507L275 444H328Q381 444 381 443Z" />
<glyph unicode="g" glyph-name="g" horiz-adv-x="500" d="M12 -86Q12 -65 20 -45T39 -10T62 15T81 32T89 39T85 50Q80 67 80 82Q80 136 126 189Q113 230 113 252Q113 281 123 311Q137 351 169 385T242 438Q277 454 311 454Q332 454 350 451T379 442T398 432T410
424L413 421Q412 423 411 424L409 426Q409 428 433 435T478 446Q525 455 560 455H568V451Q568 447 567 429T566 394L565 377L553 379Q522 385 479 385Q463 385 456 384L443 383L436 392Q454 356 454 324Q454 311 452 299Q443 235 395 187Q346 135 276 121Q269 120
249 120Q205 120 169 141L163 145Q161 143 160 141Q149 124 149 105Q149 79 171 72L242 71Q324 70 343 67Q461 51 461 -40Q461 -93 420 -130Q342 -206 211 -206Q170 -206 133 -198Q86 -187 53 -162T13 -104Q12 -100 12 -86ZM369 319Q369 349 352 366T304 383Q281
383 259 372Q233 360 215 328T197 255Q197 225 215 208T263 191Q310 191 339 228T369 319ZM289 -6Q281 -5 216 -5Q167 -5 158 -6T139 -12Q122 -20 110 -37T97 -76Q97 -84 100 -90Q113 -116 166 -129Q193 -134 221 -134Q269 -134 313 -118T369 -79Q373 -70 373 -59Q373
-41 361 -29Q343 -9 289 -6Z" />
<glyph unicode="h" glyph-name="h" horiz-adv-x="517" d="M416 321Q416 379 336 379Q326 379 316 377Q269 364 237 302Q226 276 209 202T180 66T166 2V0H119Q73 0 73 1L82 46Q92 90 111 177T147 348L221 694H265Q310 694 310 693T279 544L247 395Q329 455 403
455Q513 455 513 358Q513 334 508 309Q507 304 476 156T443 2V0H350V2Q358 34 387 172T416 321Z" />
<glyph unicode="i" glyph-name="i" horiz-adv-x="239" d="M189 578Q190 578 200 628T211 678V680H315V678Q314 678 304 628T293 578V576H189V578ZM168 442T168 443T213 444T258 443T212 225T164 2V0H74V2Q75 7 121 224Z" />
<glyph unicode="j" glyph-name="j" horiz-adv-x="267" d="M211 577L233 680H284Q336 680 336 679L315 576H263Q211 576 211 577ZM196 443Q196 444 241 444T286 443Q286 441 232 186T175 -75Q162 -123 127 -158T46 -203Q40 -204 19 -204Q-30 -204 -72 -184Q-96
-174 -96 -170Q-96 -168 -78 -132L-61 -95L-54 -103Q-32 -126 3 -126Q23 -126 50 -116Q76 -101 83 -85Q84 -79 140 180T196 443Z" />
<glyph unicode="k" glyph-name="k" horiz-adv-x="489" d="M150 348L224 694H310V691Q218 259 218 258L232 270Q245 281 274 306T327 351L435 444H489L542 443Q542 442 443 357L344 272L471 1L422 0H372L366 14Q359 27 347 54T323 105L273 210Q271 210 231 174L190
139L160 0H118Q76 0 76 1L86 46Q95 90 114 177T150 348Z" />
<glyph unicode="l" glyph-name="l" horiz-adv-x="239" d="M148 348L222 694H311V691Q311 690 238 348T164 2V0H119Q74 0 74 1L84 46Q93 90 112 177T148 348Z" />
<glyph unicode="m" glyph-name="m" horiz-adv-x="794" d="M416 321Q416 379 336 379Q326 379 316 377Q269 364 237 302Q226 276 209 202T180 66T166 2V0H119Q73 0 73 2L121 226L169 449Q169 450 213 450H256L249 421Q248 417 247 412T246 404T245 398T244 394T244
392Q247 395 251 398Q276 421 315 437T392 454Q449 454 472 439Q501 423 509 391Q509 390 510 387Q510 385 511 384Q511 384 517 388Q563 431 620 446Q648 455 680 455Q790 455 790 358Q790 334 785 309Q784 304 753 156T720 2V0H627V2Q635 34 664 172T693 321Q693
379 613 379Q603 379 593 377Q546 364 514 302Q503 276 486 202T457 66T443 2V0H350V2Q358 34 387 172T416 321Z" />
<glyph unicode="n" glyph-name="n" horiz-adv-x="517" d="M416 321Q416 379 336 379Q326 379 316 377Q269 364 237 302Q226 276 209 202T180 66T166 2V0H119Q73 0 73 2L121 226L169 449Q169 450 213 450H256L249 421Q248 417 247 412T246 404T245 398T244 394T244
392Q247 395 251 398Q276 421 315 437T392 454Q452 454 482 432T513 358Q513 334 508 309Q507 304 476 156T443 2V0H350V2Q358 34 387 172T416 321Z" />
<glyph unicode="o" glyph-name="o" horiz-adv-x="500" d="M247 -11Q169 -11 119 39T69 169Q69 190 74 218Q96 312 166 380T322 459Q340 461 348 461Q363 461 387 457Q450 443 486 395T523 271Q523 161 438 75T247 -11ZM432 279Q432 328 406 356T333 385Q305 385
280 375Q198 343 174 245Q164 211 164 178Q164 127 191 98T265 68Q307 68 344 94Q365 106 385 133Q432 198 432 279Z" />
<glyph unicode="p" glyph-name="p" horiz-adv-x="517" d="M259 443Q251 405 251 404L260 409Q269 414 286 421T324 436T375 449T434 455Q447 455 457 453Q494 445 516 405T538 303Q538 211 501 140Q454 45 374 7Q339 -11 302 -11Q226 -11 176 39V36Q175 35 151
-80L127 -193Q127 -194 80 -194H34V-191L102 127L169 443Q169 444 214 444T259 443ZM370 373Q356 375 339 375Q315 375 295 366Q270 357 238 331L193 118L196 112Q217 65 269 65Q335 65 388 124T441 262Q441 304 422 334T370 373Z" />
<glyph unicode="q" glyph-name="q" horiz-adv-x="517" d="M304 455Q347 455 376 441T436 398Q438 411 442 427L448 455H538L400 -193Q400 -194 354 -194Q307 -194 307 -193L356 37V40Q354 40 346 35Q317 16 273 3T191 -10H179Q161 -10 148 -3Q114 11 93 52T72
149Q72 228 108 303Q133 353 171 390T252 445Q284 455 304 455ZM414 298Q403 376 341 376Q295 376 251 343Q169 280 169 182Q169 129 195 97T265 65Q319 65 365 111L377 123L414 298Z" />
<glyph unicode="r" glyph-name="r" horiz-adv-x="342" d="M401 454Q403 454 408 454T416 455H424L421 442Q420 439 416 423T409 392T406 373Q342 373 288 333T216 237Q213 231 201 173T178 60T164 2V0H119Q74 0 74 2L122 226L170 449Q170 450 213 450H255L247
414Q246 409 245 403T243 393T241 385T240 379T240 377Q242 379 245 381Q247 384 258 393Q324 446 401 454Z" />
<glyph unicode="s" glyph-name="s" horiz-adv-x="383" d="M104 331Q118 393 169 427T298 461Q358 461 409 441L436 429Q436 428 421 389T405 350Q356 386 273 386Q239 386 223 378Q189 360 189 326Q189 306 208 293Q220 286 263 278L307 267Q345 254 368 226T391
157Q391 93 340 42Q287 -11 193 -11Q152 -11 110 0T43 29L35 33Q37 39 51 75T67 116L76 109Q134 67 211 67Q274 67 295 110Q301 121 301 135Q301 160 273 174Q263 178 224 186T180 197Q129 216 110 256Q99 278 99 299Q99 311 104 331Z" />
<glyph unicode="t" glyph-name="t" horiz-adv-x="361" d="M177 -11Q118 -11 118 75Q118 98 123 127Q125 137 149 251T174 369Q174 371 135 371H97V373L105 410L112 444H152L192 445L200 478Q208 512 213 541L219 571H261Q303 571 303 570T290 506L276 444H343Q410
444 410 443Q410 440 403 407T395 371H328Q261 371 261 369Q256 360 214 148Q211 132 211 118Q211 68 245 68Q289 68 334 98Q338 94 338 28V24L324 19Q268 -4 218 -8Q198 -11 177 -11Z" />
<glyph unicode="u" glyph-name="u" horiz-adv-x="517" d="M166 -10Q125 -10 108 6T90 63Q90 77 91 83Q91 86 96 109T111 182T130 268L167 443Q167 444 214 444Q260 444 260 443L224 273Q187 97 187 86Q187 70 201 65T250 59Q298 59 333 82T379 139Q380 143 412
292T444 443Q444 444 491 444Q537 444 537 443T491 225T443 2V0H353V2L361 38L352 34Q344 29 326 22T286 7T232 -5T166 -10Z" />
<glyph unicode="v" glyph-name="v" horiz-adv-x="461" d="M177 6L108 442V444H201V442Q202 441 213 371T235 213T246 90V65L248 73Q267 129 429 406L450 444H495Q540 444 540 443Q539 442 411 221L282 1L230 0H178L177 6Z" />
<glyph unicode="w" glyph-name="w" horiz-adv-x="683" d="M148 5Q147 8 128 222T109 440L108 444H199V442Q201 440 203 398Q219 222 219 140Q219 108 215 76Q215 72 214 67V65Q215 65 217 75Q226 110 278 221L390 444H475V437Q497 201 497 121Q497 90 494 70Q494
67 494 67L496 73Q507 104 528 151T563 225T612 323T654 405L674 444H718Q762 444 762 443L534 1L483 0H432V5Q424 54 418 180Q414 227 413 283Q413 343 416 370L417 378Q416 377 416 376Q411 351 383 286Q334 174 248 12L242 0H148V5Z" />
<glyph unicode="x" glyph-name="x" horiz-adv-x="461" d="M317 229Q453 9 460 0H409L359 1L312 88Q266 176 265 176Q265 177 254 165T223 132T182 88L100 0H1L15 14Q29 28 61 59T118 115L236 229L100 444H201L290 294L438 444H537L528 435Q526 432 512 418T468
376T418 327L317 229Z" />
<glyph unicode="y" glyph-name="y" horiz-adv-x="461" d="M11 -117L20 -120Q28 -124 46 -128T84 -132H100Q123 -122 149 -85Q200 -6 200 1L177 110Q154 218 132 328T109 442Q109 444 156 444H203L204 439Q205 434 207 424T211 405Q245 241 252 153Q254 131 254
114Q254 81 250 67V65L254 76Q261 104 297 177Q339 259 422 397L450 444H540Q540 443 386 186T219 -90Q153 -195 89 -204Q85 -205 73 -205Q52 -205 34 -202Q29 -202 21 -201T7 -198L1 -197Q1 -196 6 -157T11 -117Z" />
<glyph unicode="z" glyph-name="z" horiz-adv-x="435" d="M129 408L136 444H315Q494 444 494 443Q494 441 489 419L484 396L164 76L291 77Q418 77 418 76T411 41T402 2V0H215Q28 0 28 2L34 27L38 50L360 371L240 370Q121 370 121 371Q124 388 129 408Z" />
<glyph unicode="~" glyph-name="asciitilde" horiz-adv-x="500" d="M315 251Q284 251 275 193H199V197Q212 249 246 288T330 327Q355 326 382 303Q417 272 438 270Q450 267 459 273Q474 283 484 327H522Q560 327 560 325Q559 324 559 322T558 319Q549 284 528
253T480 208Q453 193 429 193Q421 193 417 194Q396 200 368 224Q336 251 315 251Z" />
<glyph unicode="&#xa0;" glyph-name="uni00A0" horiz-adv-x="250" />
<glyph unicode="&#x131;" glyph-name="dotlessi" horiz-adv-x="239" d="M168 442T168 443T213 444T258 443T212 225T164 2V0H74V2Q75 7 121 224Z" />
<glyph unicode="&#x237;" glyph-name="uni0237" horiz-adv-x="267" d="M196 443Q196 444 241 444T286 443Q286 441 232 186T175 -75Q162 -123 127 -158T46 -203Q40 -204 19 -204Q-22 -204 -54 -192Q-96 -176 -96 -170Q-55 -96 -54 -96Q-52 -99 -49 -101Q-30 -126
7 -126Q32 -126 52 -115T82 -87Q85 -81 140 181L196 443Z" />
<glyph unicode="&#x300;" glyph-name="gravecomb" horiz-adv-x="0" d="M-262 681L-270 694H-177L-132 612Q-89 530 -87 528Q-87 527 -125 527H-163L-208 598Q-254 670 -262 681Z" />
<glyph unicode="&#x301;" glyph-name="acutecomb" horiz-adv-x="0" d="M-96 625L-29 694H63Q56 687 -31 605L-114 527H-190L-176 541Q-160 559 -96 625Z" />
<glyph unicode="&#x302;" glyph-name="uni0302" horiz-adv-x="0" d="M-310 527L-140 694H-66L-16 611Q33 528 33 527H-43L-110 632L-115 639L-234 527H-310Z" />
<glyph unicode="&#x303;" glyph-name="tildecomb" horiz-adv-x="0" d="M-185 601Q-216 601 -225 543H-301V547Q-288 599 -254 638T-170 677Q-145 676 -118 653Q-83 622 -62 620Q-50 617 -41 623Q-26 633 -16 677H22Q60 677 60 675Q59 674 59 672T58 669Q49 634
28 603T-20 558Q-47 543 -71 543Q-79 543 -83 544Q-104 550 -132 574Q-164 601 -185 601Z" />
<glyph unicode="&#x304;" glyph-name="uni0304" horiz-adv-x="0" d="M-314 553Q-313 554 -309 572T-301 610T-297 631H-116Q64 631 64 630Q60 612 56 591L47 553L-133 552Q-314 552 -314 553Z" />
<glyph unicode="&#x306;" glyph-name="uni0306" horiz-adv-x="0" d="M-142 508Q-204 508 -244 549T-284 652Q-284 666 -281 683L-280 694H-204Q-205 689 -205 677Q-205 620 -162 599Q-147 590 -125 590Q-86 590 -50 619T-5 686L-2 694H73V690Q57 628 9 576Q-61
508 -142 508Z" />
<glyph unicode="&#x307;" glyph-name="uni0307" horiz-adv-x="0" d="M-180 578L-169 628L-158 678V680H-54V678Q-55 678 -66 628L-76 578V576H-180V578Z" />
<glyph unicode="&#x308;" glyph-name="uni0308" horiz-adv-x="0" d="M-273 584L-252 678V680H-154V678L-164 632Q-174 585 -175 584Q-175 582 -224 582T-273 584ZM-78 586Q-78 587 -69 632T-58 678V680H40L39 677Q39 676 38 670T34 651T29 628L19 583L-30 582H-79L-78
586Z" />
<glyph unicode="&#x30a;" glyph-name="uni030A" horiz-adv-x="0" d="M-132 527Q-169 527 -198 545T-227 597Q-227 627 -203 651Q-165 693 -102 693Q-75 693 -70 692Q-41 686 -22 669T-2 623Q-2 601 -17 580Q-35 555 -67 541T-132 527ZM-59 619Q-59 652 -104 652Q-133
652 -152 639T-171 602Q-171 569 -123 569Q-119 569 -110 570T-99 571Q-59 582 -59 619Z" />
<glyph unicode="&#x30b;" glyph-name="uni030B" horiz-adv-x="0" d="M-236 619L-195 694H-149Q-103 694 -103 693L-211 527H-287L-282 536Q-281 539 -236 619ZM-70 619L-29 694H17Q63 694 63 693L-45 527H-121L-116 536Q-115 539 -70 619Z" />
<glyph unicode="&#x30c;" glyph-name="uni030C" horiz-adv-x="0" d="M-283 654H-207L-140 549L-135 542L-16 654H60L-109 487H-147L-184 488L-234 570Q-283 653 -283 654Z" />
<glyph unicode="&#x393;" glyph-name="Gamma" horiz-adv-x="542" d="M87 2Q88 4 160 346T234 689Q234 691 440 691T646 689Q644 687 640 669T632 631L629 611H475L321 612Q193 4 191 2V0H87V2Z" />
<glyph unicode="&#x394;" glyph-name="increment" horiz-adv-x="833" d="M273 343L510 694H617Q790 2 790 0H416L42 1L273 343ZM539 576Q536 597 536 600Q536 602 535 605Q534 607 534 607Q527 580 222 130L201 98H651L648 110Q645 123 639 149T627 198Q554 489 539 576Z" />
<glyph unicode="&#x398;" glyph-name="Theta" horiz-adv-x="778" d="M384 -22Q263 -22 191 58T119 260Q119 353 162 445Q199 524 262 588T402 685Q470 715 533 715Q570 715 576 714Q712 695 772 574Q804 511 804 431Q804 374 788 316Q761 219 695 140T540 16Q461
-22 384 -22ZM603 622Q568 640 525 640Q490 640 455 628Q390 606 336 553Q309 525 293 502Q218 393 218 266Q218 210 236 165Q258 112 302 84T401 55Q454 55 508 82Q585 122 637 201T704 383Q706 401 706 426Q706 570 603 622ZM283 349L293 397H473Q652 397 652
396Q647 374 642 347L632 299H452Q273 299 273 300Q278 322 283 349Z" />
<glyph unicode="&#x39b;" glyph-name="Lambda" horiz-adv-x="611" d="M28 0Q31 5 214 347T401 694H504V690Q505 686 543 345T582 1Q582 0 528 0H473V3Q468 22 450 208Q432 375 424 497Q422 529 422 558Q422 593 424 603L425 610Q424 610 420 596Q406 556 343 431Q287
316 143 49L117 1L73 0H28Z" />
<glyph unicode="&#x39e;" glyph-name="Xi" horiz-adv-x="667" d="M193 687Q193 688 479 688H765V686Q764 685 755 642L747 600H461L175 601Q175 602 184 645L193 687ZM196 400Q196 401 418 401T640 400L622 315Q622 314 400 314T178 315L196 400ZM42 2Q43 3 51
44T60 87H64Q68 87 75 87T93 87T119 87T151 88T190 88T237 88T291 88T352 88H643Q643 87 639 66T630 24T624 2V0H42V2Z" />
<glyph unicode="&#x3a0;" glyph-name="Pi" horiz-adv-x="708" d="M86 2Q88 4 160 346T233 689Q233 691 501 691Q768 691 768 689Q766 688 694 346T621 2V0H517V2Q518 3 582 304T646 609L648 615H321L190 0H86V2Z" />
<glyph unicode="&#x3a3;" glyph-name="Sigma" horiz-adv-x="722" d="M194 655L202 694H508Q813 694 813 693Q809 675 805 653L797 614H559L321 615Q333 597 405 478L485 347Q449 311 348 203T247 86Q247 84 294 84Q303 84 359 84T465 85H684Q684 84 675 42L666
0H360L55 1L195 154Q346 319 347 320L359 333L273 473Q187 614 186 614L187 620Q188 625 190 635T194 655Z" />
<glyph unicode="&#x3a5;" glyph-name="Upsilon" horiz-adv-x="778" d="M747 555Q749 565 749 574Q749 603 735 620T693 638Q667 638 645 627Q580 597 543 465Q531 425 506 309T462 98T441 2V0H337V2Q348 49 423 406Q438 494 438 526Q438 609 395 630Q381 637 364
637H357Q336 637 323 630Q279 607 266 555H173Q182 585 188 598Q214 650 264 683T373 716Q497 716 497 542V509L504 526Q541 619 590 665Q618 691 644 703T711 715Q770 715 806 680T843 589Q843 568 840 555H747Z" />
<glyph unicode="&#x3a6;" glyph-name="Phi" horiz-adv-x="722" d="M433 106Q411 3 410 2Q410 0 361 0H312L313 3Q313 5 324 56L335 107H331Q330 107 328 108T321 109T312 111Q241 125 190 168Q124 225 124 308Q124 332 130 354Q145 412 190 463T303 547Q362 576
433 587Q437 587 437 589Q438 590 449 643L459 694H508Q557 694 557 693Q557 691 546 641T535 587L547 585Q621 572 672 531T738 431Q743 414 743 387Q743 350 731 318Q703 241 625 184T449 110L433 106ZM420 509Q420 510 410 509Q338 493 289 449T228 337Q227
332 227 315Q227 280 239 256Q263 210 319 192Q341 184 350 184H351L386 346Q420 507 420 509ZM642 381Q642 433 611 465T529 508Q527 508 524 509Q520 510 519 510T484 348T450 184Q574 207 624 304Q642 341 642 381Z" />
<glyph unicode="&#x3a8;" glyph-name="Psi" horiz-adv-x="778" d="M340 2Q341 3 351 54T362 106Q363 107 359 108Q357 109 350 110Q222 138 199 260Q194 287 194 319Q194 361 205 416Q213 456 213 483Q213 512 206 526T179 544L171 546Q184 609 187 619V621H239Q291
621 298 619Q325 608 325 556V549Q322 507 309 443Q294 368 294 330Q294 222 369 191Q372 190 376 188Q379 187 380 187L488 694H585V691Q584 689 531 438L478 188H479Q485 188 511 200Q570 229 603 286T654 435Q674 527 693 567Q701 581 704 587Q720 609 733 615Q745
621 802 621H854V619L838 546Q838 545 832 545Q805 542 783 511Q763 481 749 418Q715 273 638 196Q570 125 469 109Q462 108 460 106Q460 105 450 54T438 2V0H340V2Z" />
<glyph unicode="&#x3a9;" glyph-name="Omega" horiz-adv-x="722" d="M664 498Q664 565 617 602T497 640Q476 640 448 635Q382 623 332 582T262 482Q250 441 250 392Q250 341 277 232Q302 128 302 70V56Q302 28 296 2V0H44V2L62 85Q62 86 143 86L225 85V88L224
90Q224 92 224 95T223 100Q218 142 188 227Q164 297 156 334Q148 376 148 407Q148 533 250 618T484 715Q492 716 511 716Q605 716 671 675T760 565Q769 536 769 507Q769 422 691 309Q678 290 627 224Q592 179 562 136Q533 90 533 86Q542 85 557 85Q564 85 583 85T614
86Q695 86 695 85Q679 9 677 2V0H425Q426 3 430 21T438 46Q458 103 548 240T658 451Q664 477 664 498Z" />
<glyph unicode="&#x2013;" glyph-name="endash" horiz-adv-x="500" d="M59 275L66 312H316Q565 312 565 311T558 275T549 238Q549 236 299 236Q50 236 50 237L52 242Q53 247 55 257T59 275Z" />
<glyph unicode="&#x2014;" glyph-name="emdash" horiz-adv-x="1000" d="M59 275L66 312H566Q1065 312 1065 311T1058 275T1049 238Q1049 236 549 236Q50 236 50 237L52 242Q53 247 55 257T59 275Z" />
<glyph unicode="&#x2018;" glyph-name="quoteleft" horiz-adv-x="278" d="M309 567L288 473Q288 471 239 471T190 473L192 480Q193 486 196 499T201 522L211 569L287 694H312L335 693L332 685Q328 677 321 661T307 630L279 570L294 569Q309 569 309 567Z" />
<glyph unicode="&#x2019;" glyph-name="quoteright" horiz-adv-x="278" d="M228 647L237 694H286Q335 694 335 693L334 686Q332 680 330 668T325 644L315 597L239 471H214Q190 471 190 472L246 595Q246 596 231 596H217V598Q217 601 228 647Z" />
<glyph unicode="&#x201c;" glyph-name="quotedblleft" horiz-adv-x="500" d="M393 567L372 473Q372 471 323 471T274 473L276 480Q277 486 280 499T285 522L295 569L371 694H396L419 693L416 685Q412 677 405 661T391 630L363 570L378 569Q393 569 393 567ZM587
567L566 473Q566 471 517 471T468 473L470 480Q471 486 474 499T479 522L489 569L565 694H590L613 693L610 685Q606 677 599 661T585 630L557 570L572 569Q587 569 587 567Z" />
<glyph unicode="&#x201d;" glyph-name="quotedblright" horiz-adv-x="500" d="M171 647L180 694H229Q278 694 278 693L276 686Q275 680 273 668T268 644L258 597L182 471H157Q133 471 133 472L189 595Q189 596 174 596H160V598Q160 601 171 647ZM365 647L374 694H423Q472
694 472 693L470 686Q469 680 467 668T462 644L452 597L376 471H351Q327 471 327 472L383 595Q383 596 368 596H354V598Q354 601 365 647Z" />
<glyph unicode="&#xeffd;" glyph-name="uniEFFD" horiz-adv-x="700" d="M0 0V100H100V0H0ZM600 0V100H700V0H600Z" />
<glyph unicode="&#xeffe;" glyph-name="uniEFFE" horiz-adv-x="300" d="M0 0V100H100V0H0ZM200 0V100H300V0H200Z" />
<glyph unicode="&#xefff;" glyph-name="uniEFFF" horiz-adv-x="100" d="M0 0V100H100V0H0Z" />
</font>
</defs>
</svg>
